Lady Chatterley's Lover | Любовник Леди Чаттерлей (Just Jaekin, Cine Artist Film GmbH, Cine-Source, London-Cannon Films) [1981 г., UK | France | West Germany, Erotic, Drama, Romance, BDRip 384p] MVO Rus {НТВ+ по заказу НТВ}

Ответить на тему
Статистика раздачи
Размер:  1.45 GB   |    Зарегистрирован:  10 месяцев 25 дней   |    Скачан:  14 раз

Полного источника не было: Никогда

   
 
Автор Сообщение

Burzum ®

Стаж: 1 год 7 месяцев

Сообщений: 723

Пост 01-Май-2016 14:06

[Цитировать]

Lady Chatterley's Lover | Любовник Леди Чаттерлей- Год производства: 1981 г.
Страна: Великобритания | Франция | Германия / UK | France | West Germany
Жанр: Erotic, Drama, Romance
Продолжительность: 1:43:53.519
Язык: Русский
Перевод: Профессиональный (многоголосый, закадровый) - НТВ+ по заказу НТВ
Русские субтитры: нет
Режиссер: Жюст Жакен / Just Jaekin
Студия: Cine Artist Film GmbH, Cine-Source, London-Cannon Films
В ролях: Sylvia Kristel /, Николас Клэй / Nicholas Clay /, Шэйн Брайант / Shane Briant /, Питер Беннет, Энн Митчелл / Ann Mitchell /, Элизабет Сприггс / Elizabeth Spriggs /, Паскаль Риво, Энтони Хэд, Бесси Лав / Bessie Love
Описание: Фильм по скандальному роману Дэвида Герберта Лоуренса, долгие годы запрещенному в Англии, поставил Жюст Жакен - режиссер знаменитого фильма "Эмманюэль", а сыграла главную героиню - жену аристократа-импотента (нижняя чать у него была парализована в результате ранения на войне), влюбленную в лесника, та же Сильвия Кристель - Эмманюэль. Воспевание чувственной любви, довольно смелые для того времени эротические сцены.-A film adaptation of D.H. Lawrence's novel. After a crippling injury leaves her husband impotent, Lady Chatterly is torn between her love for her husband and her physical desires. With her husband's consent, she seeks out other means of fulfilling her needs.
IMDb: http://www.imdb.com/title/tt0082640/
КиноПоиск: http://www.kinopoisk.ru/film/37588/

Качество видео: BDRip
Формат видео: AVI
Видео: 704x384 (1.83:1), 23.976 fps, XviD build 50 ~1794 kbps avg, 0.28 bit/pixel
Аудио: 48 kHz, AC3 Dolby Digital, 2/0 (L,R) ch, ~192.00 kbps avg

Скриншоты

MediaInfo

General
Format : AVI
Format/Info : Audio Video Interleave
File size : 1.45 GiB
Duration : 1h 44mn
Overall bit rate : 1 996 Kbps
Writing application : VirtualDubMod 1.5.10.2 (build 2540/release)
Writing library : VirtualDubMod build 2540/release
Video
ID : 0
Format : MPEG-4 Visual
Format profile : Advanced Simple@L5
Format settings, BVOP : Yes
Format settings, QPel : No
Format settings, GMC : No warppoints
Format settings, Matrix : Custom
Codec ID : XVID
Codec ID/Hint : XviD
Duration : 1h 44mn
Bit rate : 1 795 Kbps
Width : 704 pixels
Height : 384 pixels
Display aspect ratio : 16:9
Frame rate : 23.976 fps
Color space : YUV
Chroma subsampling : 4:2:0
Bit depth : 8 bits
Scan type : Progressive
Bits/(Pixel*Frame) : 0.277
Stream size : 1.30 GiB (90%)
Writing library : XviD 1.2.1 (UTC 2008-12-04)
Audio
ID : 1
Format : AC-3
Format/Info : Audio Coding 3
Mode extension : CM (complete main)
Codec ID : 2000
Duration : 1h 44mn
Bit rate mode : Constant
Bit rate : 192 Kbps
Channel(s) : 2 channels
Channel positions : Front: L R
Sampling rate : 48.0 KHz
Bit depth : 16 bits
Stream size : 143 MiB (10%)
Alignment : Aligned on interleaves
Interleave, duration : 42 ms (1.00 video frame)
Interleave, preload duration : 512 ms
(pornosad.net).t7012.torrent 
Торрент: Зарегистрирован   [ 2016-05-01 14:06 ]

Скачать

15 KB

Статус: проверено
Скачан: 14 раз
Размер: 1.45 GB
 

_________________
[Профиль] [ЛС]
Показать сообщения:    
Ответить на тему

Текущее время: Сегодня 19:54

Часовой пояс: GMT + 1



Вы не можете начинать темы
Вы не можете отвечать на сообщения
Вы не можете редактировать свои сообщения
Вы не можете удалять свои сообщения
Вы не можете голосовать в опросах
Вы не можете прикреплять файлы к сообщениям
Вы можете скачивать файлы